Doctor Zhivago (Ed.45º aniversario)(1965)[Drama, Epica][Bdrip.m-720p.Dual.AC3.subs]

escrito por Javi Sanchez el 8 julio 2013

Sin comentarios


Título original Doctor Zhivago
Año 1965
Duración 197 min.
País
Director David Lean
Guión Robert Bolt (Novela: Boris Pasternak)
Música Maurice Jarre
Fotografía Freddie Young, Nicolas Roeg
Reparto Omar Sharif, Julie Christie, Geraldine Chaplin, Alec Guinness, Rod Steiger, Tom Courtenay, Ralph Richardson, Siobhan McKenna, Rita Tushingham, Geoffrey Keen, Bernard Kay, Jack MacGowran, Adrienne Corri, Wolf Frees, Gwen Nelson, Noel Willman, Gérard Tichy, Klaus Kinski, Jeffrey Rockland, José María Caffarel, Tarek Sharif, Mark Eden, Erik Chitty, Lucy Westmore, Virgilio Teixeira
Productora MGM presenta una producción Carlo Ponti
Género Drama. Romance. Aventuras | Histórico. Revolución Rusa. Cine épico. Drama romántico
Sinopsis
Rusia, revolución bolchevique (1917). La guerra civil que sigue a la revolución mantiene al país profundamente dividido. En medio del conflicto, asistimos al drama íntimo de un hombre que lucha por sobrevivir. Este hombre es Zhivago, poeta y cirujano, marido y amante, cuya vida trastornada por la guerra afecta a las vidas de otros, incluida Tonya, su esposa, y Lara, la mujer de la que se enamora apasionadamente. (FILMAFFINITY)

Mediainfo:
Spoiler

Complete name : Doctor Zhivago.Bdrip.m-720p.Dual.x.lagartish.mkv
Format : Matroska
File size : 6.13 GiB
Duration : 3h 20mn
Overall bit rate : 4 383 Kbps
Movie name : Doctor Zhivago x lagartish
Encoded date : UTC 2013-07-01 14:18:32
Writing application : mkvmerge v4.8.0 (‘I Got The…’) creado el May 23 2011 22:30:05
Writing library : libebml v1.2.0 + libmatroska v1.1.0
Video
ID : 1
Format : AVC
Format/Info : Advanced Video Codec
Format profile : High@L4.1
Format settings, CABAC : Yes
Format settings, ReFrames : 12 frames
Codec ID : V_MPEG4/ISO/AVC
Duration : 3h 20mn
Bit rate : 3 400 Kbps
Width : 1 280 pixels
Height : 534 pixels
Display aspect ratio : 2.35:1
Frame rate : 23.976 fps
Color space : YUV
Chroma subsampling : 4:2:0
Bit depth : 8 bits
Scan type : Progressive
Bits/(Pixel*Frame) : 0.207
Stream size : 4.75 GiB (78%)
Encoding settings : cabac=1 / ref=12 / deblock=1:-3:-3 / analyse=0x3:0x113 / me=umh / subme=9 / psy=1 / psy_rd=1.20:0.00 / mixed_ref=1 / me_range=16 / chroma_me=1 / trellis=2 / 8x8dct=1 / cqm=0 / deadzone=21,11 / fast_pskip=0 / chroma_qp_offset=-2 / threads=12 / sliced_threads=0 / nr=0 / decimate=0 / interlaced=0 / bluray_compat=0 / constrained_intra=0 / bframes=7 / b_pyramid=2 / b_adapt=2 / b_bias=0 / direct=3 / weightb=1 / open_gop=0 / weightp=2 / keyint=250 / keyint_min=23 / scenecut=40 / intra_refresh=0 / rc_lookahead=40 / rc=crf / mbtree=1 / crf=18.5 / qcomp=0.60 / qpmin=0 / qpmax=69 / qpstep=4 / ip_ratio=1.40 / aq=1:0.65
Language : English
Matrix coefficients : BT.709-5, BT.1361, IEC 61966-2-4 709, SMPTE RP177
Audio #1
ID : 2
Format : AC-3
Format/Info : Audio Coding 3
Mode extension : CM (complete main)
Codec ID : A_AC3
Duration : 3h 20mn
Bit rate mode : Constant
Bit rate : 448 Kbps
Channel(s) : 6 channels
Channel positions : Front: L C R, Side: L R, LFE
Sampling rate : 48.0 KHz
Bit depth : 16 bits
Compression mode : Lossy
Delay relative to video : 3s 250ms
Stream size : 641 MiB (10%)
Language : Spanish
Audio #2
ID : 3
Format : AC-3
Format/Info : Audio Coding 3
Mode extension : CM (complete main)
Codec ID : A_AC3
Duration : 3h 20mn
Bit rate mode : Constant
Bit rate : 448 Kbps
Channel(s) : 6 channels
Channel positions : Front: L C R, Side: L R, LFE
Sampling rate : 48.0 KHz
Bit depth : 16 bits
Compression mode : Lossy
Stream size : 641 MiB (10%)
Language : English
Text #1
ID : 4
Format : UTF-8
Codec ID : S_TEXT/UTF8
Codec ID/Info : UTF-8 Plain Text
Language : Spanish
Text #2
ID : 5
Format : UTF-8
Codec ID : S_TEXT/UTF8
Codec ID/Info : UTF-8 Plain Text
Language : English
Text #3
ID : 6
Format : UTF-8
Codec ID : S_TEXT/UTF8
Codec ID/Info : UTF-8 Plain Text
Menu
00:00:00.000 : en:Overture
00:04:25.265 : en:Credits
00:07:15.435 : en:Yevgraf and Tonya
00:13:26.388 : en:Laid to Rest
00:16:38.455 : en:The Balalaika
00:19:28.333 : en:Strangers on a Train
00:21:42.050 : en:Lara and Pasha
00:23:52.889 : en:Home Life: Yuri and Lara
00:28:01.304 : en:The Demonstration
00:29:59.506 : eninner with Komarosvsky
00:33:14.075 : en:Ended: Dissent and Innocence
00:38:58.711 : en:Tonya Comes Home
00:41:05.963 : en:Pasha and the Gun
00:44:00.929 : en:"You’ll Always Come Back"
00:47:31.807 : en:Suicide Attempt
00:53:27.162 : en:Yuri Sees Lara
00:56:50.281 : en:Plain Speaking
01:00:31.544 : en:Brute Force
01:03:03.905 : en:The Christmas Party
01:08:35.528 : en:Interwoven Destinies
01:10:57.836 : en:Ringing Sorrow
01:12:45.319 : en:War’s Toll
01:16:47.811 : eneserters Meet Replacements
01:20:37.791 : en:"Are You a Nurse?"
01:23:03.645 : en:No More Czars
01:27:05.929 : en:Understood
01:30:06.526 : en:Farewells
01:32:49.939 : en:Full House
01:35:13.290 : en:"The Stove’s Out"
01:39:09.860 : en:Pilfering Firewood
01:41:30.793 : en:Brothers Zhivago
01:44:49.408 : en:Boarding the Train
01:47:40.996 : en:The Only Free Man
01:49:50.208 : enisinfecting
01:53:25.381 : en:Another Passenger
01:56:52.213 : en:"Strelnikov!"
01:58:41.531 : en:Intermission
01:59:42.300 : en:Concatenation
02:01:38.290 : en:Entr’Act
02:03:21.811 : en:Through the Urals
02:09:04.153 : en:With Strelnikov
02:12:34.863 : en:Varykino
02:15:06.473 : en:One of the People Too
02:17:16.895 : en:No Going Back
02:19:59.015 : en:Spring (Lara’s Theme)
02:24:56.854 : en:Reunited
02:30:06.872 : en:Between Two Women
02:32:55.749 : en:Conscripted
02:36:21.371 : en:Soldiers to Schoolboys
02:40:56.146 : en:Turning Back
02:45:05.353 : en:Yuriatin… and Lara
02:47:49.642 : en:Tonya’s Letter
02:53:30.733 : en:Kamarovsky’s Help
02:56:54.103 : en:Return to Varykino
03:03:47.516 : en:Writing Again
03:07:39.456 : en:Strelnikov’s End
03:09:42.245 : en:Final Farewell
03:10:56.319 : en:A Mother’s Duty
03:14:20.357 : en:Yuri’s Last Glimpse of Lara
03:15:35.014 : en:Yevgraf’s Last Glimpse of Lara
03:18:18.761 : en:A Gift
03:20:04.909 : en:Credits

Fuente de vídeo: Bluray USA
Contenedor: mkv
Codificacion: crf
Tamaño: 6.13 Gb
Tasa de Bits total 4383 kbps
Resolucion: 1280×544
Audio 1: AC3 448 kbps castellano
Audio 2: AC3 448 kbps ingles
Links: 20 de 299 Mb y 1 de 283 Mb
Archivos de recuperacion: 3 rev
Subs: Español e ingles completos
Archivos intercambiables
Descarga por Putlocker, Uploaded.to, Freakshare, Rapidgator, Bitshare, Ddlstorage
http://0ceb4d15.linkbucks.com
http://linksave.in/159680449651d60250d280a

Valoración: 0 / 5.00 (0 votos)

Todavía no hay comentarios, se el primero!

Escribir un comentario