Detention Of The Dead 2012 DVDRiP AC3-5 1 XviD-AXED

escrito por Javi Sanchez el 12 julio 2013

Sin comentarios


Detention Of The Dead 2012 DVDRiP AC3-5 1 XviD-AXED


Código:

http://www.imdb.com/title/tt1865346

PLOT INFO:
A group of oddball high school students find themselves trapped in detention with their classmates having turned into a horde of Zombies.

Media Info:
General
Complete name : Detention.Of.The.Dead.2012.DVDRiP.AC3-5.1.XviD-AXED.avi
Format : AVI
Format/Info : Audio Video Interleave
File size : 1.37 GiB
Duration : 1h 27mn
Overall bit rate : 2 248 Kbps

Video
ID : 0
Format : MPEG-4 Visual
Format profile : Advanced Simple@L5
Format settings, BVOP : 2
Format settings, QPel : No
Format settings, GMC : No warppoints
Format settings, Matrix : Default (H.263)
Muxing mode : Packed bitstream
Codec ID : XVID
Codec ID/Hint : XviD
Duration : 1h 27mn
Bit rate : 1 792 Kbps
Width : 720 pixels
Height : 304 pixels
Display aspect ratio : 2.35:1
Frame rate : 23.976 fps
Color space : YUV
Chroma subsampling : 4:2:0
Bit depth : 8 bits
Scan type : Progressive
Compression mode : Lossy
Bits/(Pixel*Frame) : 0.342
Stream size : 1.09 GiB (80%)
Writing library : XviD 64

Audio
ID : 1
Format : AC-3
Format/Info : Audio Coding 3
Mode extension : CM (complete main)
Format settings, Endianness : Big
Codec ID : 2000
Duration : 1h 27mn
Bit rate mode : Constant
Bit rate : 448 Kbps
Channel(s) : 6 channels
Channel positions : Front: L C R, Side: L R, LFE
Sampling rate : 48.0 KHz
Bit depth : 16 bits
Compression mode : Lossy
Stream size : 279 MiB (20%)
Alignment : Aligned on interleaves
Interleave, duration : 64 ms (1.53 video frames)
Interleave, preload duration : 192 ms
Title : 3_2ch 448Kbps DELAY 0ms

Código:

http://ul.to/6o9r8bz4

http://ul.to/2pg2oe0o

http://rapidgator.net/file/de91cf89e28c763aa11a4f4d184ecb3d/Detention.Of.The.Dead.part2.rar.html

http://rapidgator.net/file/246e5d1bb9b2e6ceeaa31bad1cd5973f/Detention.Of.The.Dead.part1.rar.html

Valoración: 0 / 5.00 (0 votos)

Todavía no hay comentarios, se el primero!

Escribir un comentario