Despicable Me 2 2013 TS XViD UNiQUE

escrito por Javi Sanchez el 14 julio 2013

Sin comentarios

Despicable Me 2 2013 TS XViD UNiQUE

Código:

Format : AVI
Format/Info : Audio Video Interleave
File size : 1.38 GiB
Duration : 1h 33mn
Overall bit rate : 2 112 Kbps
Writing application : VirtualDubMod 1.5.10.2 (build 2540/release)
Writing library : VirtualDubMod build 2540/release

Video
ID : 0
Format : MPEG-4 Visual
Format profile : Advanced Simple@L5
Format settings, BVOP : 2
Format settings, QPel : No
Format settings, GMC : No warppoints
Format settings, Matrix : Default (H.263)
Muxing mode : Packed bitstream
Codec ID : XVID
Codec ID/Hint : XviD
Duration : 1h 33mn
Bit rate : 1 976 Kbps
Width : 720 pixels
Height : 384 pixels
Display aspect ratio : 1.85:1
Frame rate : 20.000 fps
Color space : YUV
Chroma subsampling : 4:2:0
Bit depth : 8 bits
Scan type : Progressive
Compression mode : Lossy
Bits/(Pixel*Frame) : 0.357
Stream size : 1.30 GiB (94%)
Writing library : XviD 64

Audio
ID : 1
Format : MPEG Audio
Format version : Version 1
Format profile : Layer 3
Codec ID : 55
Codec ID/Hint : MP3
Duration : 1h 33mn
Bit rate mode : Constant
Bit rate : 128 Kbps
Channel(s) : 2 channels
Sampling rate : 44.1 KHz
Compression mode : Lossy
Stream size : 85.9 MiB (6%)
Alignment : Split accross interleaves
Interleave, duration : 50 ms (1.00 video frame)
Interleave, preload duration : 500 ms

Source Used 1080p Troublemaker/ AFRiEND – Thanks

http://www.imdb.com/title/tt1690953

While Gru, the ex-supervillain is adjusting to family life and an attempted honest living in the jam business, a secret Arctic laboratory is stolen. The Anti-Villain League decides it needs an insider’s help and recruits Gru in the investigation. Together with the eccentric AVL agent, Lucy Wilde, Gru concludes that his prime suspect is the presumed dead supervillain, El Macho, whose his teenage son is also making the moves on his eldest daughter, Margo. Seemingly blinded by his overprotectiveness of his children and his growing mutual attraction to Lucy, Gru seems on the wrong track even as his minions are being quietly kidnapped en masse for some malevolent purpose.

Basically same deal as 720 sharpened added saturation and sharpened oh n cropped :lol:

There wasn’t any screens included so i took a couple from the sample with VLC



Sample:
Código:

http://uploaded.net/file/owicu6s4/sample.avi

Download:
Código:

http://uploaded.net/file/fs6giqyx/de.avi
or

http://uploaded.net/file/9mdayays/Despicable%20Me%202%202013%20TS%20%20XViD%20UNiQUE.part1.rar

http://uploaded.net/file/a5x9qogb/Despicable%20Me%202%202013%20TS%20%20XViD%20UNiQUE.part2.rar

Valoración: 0 / 5.00 (0 votos)

Todavía no hay comentarios, se el primero!

Escribir un comentario