Despicable Me 2 2013 NEWSOURCE HDCAM x264 AAC-BadMeetsEvil

escrito por Javi Sanchez el 9 julio 2013

Sin comentarios

Despicable Me 2 2013 NEWSOURCE HDCAM x264 AAC-BadMeetsEvil

Código:

Sources: Video – Troublemaker 1080p … Audio – Voice Memo – THANKS

^^^ NOTES: Very nice 1080p source used here, all i did was crop the black off the bottom, resized, tweaked contrast, saturation, levels and sharpen.

Audio is still cam for now but its nice and clear, we used the german audio for the end credits too but thats about it, enjoy until something better is here.

http://www.imdb.com/title/tt1690953/

Gru is recruited by the Anti-Villain League to help deal with a powerful new super criminal.

General
Complete name : Despicable Me 2 2013 NEWSOURCE HDCAM x264 AAC-BadMeetsEvil.mp4
Format : MPEG-4
Format profile : Base Media
Codec ID : isom
File size : 693 MiB
Duration : 1h 33mn
Overall bit rate mode : Variable
Overall bit rate : 1 033 Kbps
Encoded date : UTC 2013-07-09 15:45:35
Tagged date : UTC 2013-07-09 15:45:35

Video
ID : 1
Format : AVC
Format/Info : Advanced Video Codec
Format profile : High@L4.1
Format settings, CABAC : Yes
Format settings, ReFrames : 3 frames
Codec ID : avc1
Codec ID/Info : Advanced Video Coding
Duration : 1h 33mn
Bit rate mode : Variable
Bit rate : 938 Kbps
Maximum bit rate : 40.0 Mbps
Width : 720 pixels
Height : 384 pixels
Display aspect ratio : 1.85:1
Frame rate mode : Constant
Frame rate : 20.000 fps
Color space : YUV
Chroma subsampling : 4:2:0
Bit depth : 8 bits
Scan type : Progressive
Bits/(Pixel*Frame) : 0.170
Stream size : 629 MiB (91%)
Writing library : x264 core 133 r2334 a3ac64b

Audio
ID : 2
Format : AAC
Format/Info : Advanced Audio Codec
Format profile : LC
Codec ID : 40
Duration : 1h 33mn
Bit rate mode : Variable
Bit rate : 91.7 Kbps
Maximum bit rate : 143 Kbps
Channel(s) : 2 channels
Channel positions : Front: L R
Sampling rate : 44.1 KHz
Compression mode : Lossy
Stream size : 61.5 MiB (9%)
Language : English
Encoded date : UTC 2013-07-09 15:41:10
Tagged date : UTC 2013-07-09 15:45:56




Sample:
Código:

http://uploaded.net/file/za88crmy/Sample.mp4

Download:
Código:

http://uploaded.net/file/qc1m6k5p/Despicable%20Me%202%202013%20NEWSOURCE%20HDCAM%20×264%20AAC-BadMeetsEvil.rar
or
http://uploaded.net/file/79ccr32g/Despicable%20Me%202%202013%20NEWSOURCE%20HDCAM%20×264%20AAC-BadMeetsEvil.mp4

Valoración: 0 / 5.00 (0 votos)

Todavía no hay comentarios, se el primero!

Escribir un comentario