Despicable Me 2 2013 720p TS + END SCENE XViD – JUSTiCE

escrito por Javi Sanchez el 13 julio 2013

Sin comentarios

Despicable Me 2 2013 720p TS + END SCENE XViD – JUSTiCE

Código:

Despicable Me 2 2013 720p TS + END SCENE XViD – JUSTiCE

http://www.imdb.com/title/tt1690953/

SOURCE : VIDEO – 1080p Troublemaker / AUDIO – An Old FRiEND/TROUBLEMAKER

Video and audio both cleaned and given justice.
Check sample and see…..

Right video …Pure and simple CLASS cam!!
Had some faults like ANY cam would do but this is one of THE best cams ever done,so take a bow
cammer….whoever you are.
Video did have a little border at the bottom and also a slight bit of glare and if anything maybe
too much colour.
Oh this video also has the end scene,when the credits are rolling…. :)

Audio ….some very nice line audio,with some hiss and noise to it,but MUCH better than the cam audio we all used.

First off dropped the 1080 into vdub …used null for cropping,then resized it to a 720p and used modd16.
Then from there i changed th contrast and brightness levels and used intes to lower the glares and
for once actually lowered the colouring.
No smoother used just added a bit more sharpness.
Almost looks like a dvdrip now ….its that good. ( down to the sors being that good ).

Audio…just dropped in adobe and changed all the EQ bands to my liking and then used a hiss reduction filter with a custom
template i made to remove the hiss without killing the audio :)
Now runtime was different and the audio started to lag …by the end it was 6 secs oos …so had to shrink
it,twice in the end,to get it in sync.
Once done …just muxed to our rip.

Overall V9 …A9 …M8 ( based on 10 being best cam / best line audio )…IMHO of course.

Video
ID : 0
Format : MPEG-4 Visual
Format profile : Advanced Simple@L5
Format settings, BVOP : 2
Format settings, QPel : No
Format settings, GMC : No warppoints
Format settings, Matrix : Default (MPEG)
Muxing mode : Packed bitstream
Codec ID : XVID
Codec ID/Hint : XviD
Duration : 1h 33mn
Bit rate : 3 588 Kbps
Width : 1 280 pixels
Height : 704 pixels
Display aspect ratio : 16:9
Frame rate : 20.000 fps
Color space : YUV
Chroma subsampling : 4:2:0
Bit depth : 8 bits
Scan type : Progressive
Compression mode : Lossy
Bits/(Pixel*Frame) : 0.199
Stream size : 2.35 GiB (94%)
Writing library : XviD 64

Audio
ID : 1
Format : MPEG Audio
Format version : Version 1
Format profile : Layer 3
Codec ID : 55
Codec ID/Hint : MP3
Duration : 1h 33mn
Bit rate mode : Constant
Bit rate : 224 Kbps
Channel(s) : 2 channels
Sampling rate : 48.0 KHz
Compression mode : Lossy
Delay relative to video : 100ms
Stream size : 150 MiB (6%)
Alignment : Split accross interleaves
Interleave, duration : 50 ms (1.00 video frame)
Interleave, preload duration : 500 ms





Sample:
Código:

http://uploaded.net/file/1ur79te8/sample.avi

Download:
Código:

http://uploaded.net/file/qcwqnqb5/Despicable%20Me%202%202013%20720p%20TS+%20END%20SCENE%20XViD%20-%20JUSTiCE.avi
or

http://uploaded.net/file/8ofg5yyn/dme2720p.part1.rar

http://uploaded.net/file/vrswgugg/dme2720p.part2.rar

http://uploaded.net/file/4lcq0ehe/dme2720p.part3.rar

Valoración: 0 / 5.00 (0 votos)

Todavía no hay comentarios, se el primero!

Escribir un comentario