Descargar Gratis Danza con Lobos DvdRip Latino AVI(Xvid)porMU

escrito por Javi Sanchez el 12 julio 2013

Sin comentarios


Título original: Dances with Wolves
Título en Latinoamérica: Danza Con Lobos
Otros Títulos: Bailando Con Lobos
Año: 1990
País: Estados Unidos
Director: Kevin Costner
Reparto: Kevin Costner (Teniente John J. Dunbar / Danzas con lobos), Mary McDonnell (Parada con un Puño), Graham Greene (Patadas de Aves), Rodney A. Grant (Viento en el Pelo), Floyd Red Crow Westerman (Jefe Diez Osos), Tantoo Cardinal (Shawl Negro), Jimmy Herman (Becerro de Piedra), Nathan Lee Busca su Caballo (Ríe mucho), Michael Spears (Nutria), Jason R. Lone Hill (Gusano), Charles Rocket (Teniente Elgin), Robert Pastorelli (Timmons), Larry Joshua (Sgt. Bauer), Tony Pierce (Spivey), Kirk Baltz (Edwards), Tom Everett (Sgt. Pepper), Maury Chaykin (Mayor Fambrough), Wes Studi (Feroces Pawnee), Wayne Grace (El Mayor).
Música: John Barry.
Guión: Michael Blake.
Productora: Warner Bros. Pictures | Tig Productions | Orion Pictures.
Género: Aventura, Drama, Western.
IMDb: Dances with Wolves (1990) – IMDb [rate:8.0] 77,174 votes

Durante la Guerra de Secesión americana, el teniente Dunbar es enviado por un coronel a un puesto avanzado en la llamada frontera en territorio indio, donde está completamente solo. Al llegar se dá que cuenta que el puesto está totalmente abandonado y debe recomponerlo con gran esfuerzo. La soledad lo acompaña día tras día. A medida que pasan los días establece amistad primero con un lobo al que llama Two Socks por sus patas delanteras blancas (Calcetines en la versión española y Dos Albos en la latinoamericana), quien lo acompaña en sus patrullas. Posteriormente y con mucha dificultad entabla relaciones amistosas con un líder llamado Ave que patea de la tribu Sioux (Graham Greene) que vive cerca gracias a una advertencia anticipada de bisontes en las praderas. Poco a poco Dunbar va aceptando las costumbres de sus nuevos amigos llegando a adoptar incluso parte de su indumentaria; además él anota y dibuja todo lo que ve en su diario. Finalmente es aceptado como miembro de la tribu, que le da el nombre de "El que baila con lobos" (Danza con lobos). Dunbar, una vez aceptado, se enamora de una mujer blanca (Mary McDonnell) que vive con la tribu desde niña, ya que es huérfana desde su niñez a causa de un ataque de indios hostíles Pawnees. La mujer es llamada por los indios "De pie con el puño en alto". Pronto se casan a la usanza india y Dunbar va sintiéndose cada vez más integrado. Dunbar además pelea sus batallas contra los enemigos de la tribu, los indios Pawnees, y ayuda a eliminar al feroz líder (Wes Studi). Pero el ejército llega a las tierras de los Sioux y Dunbar debe tomar una decisión: regresar con el ejército o seguir al lado de la tribu Sioux donde aparentemente está su felicidad.

General
Complete name : C:\Users/Documents\FFOutput\Danza.Con.Lobos.dvdrip.latino_a rc.avi
Format : AVI
Format/Info : Audio Video Interleave
File size : 1.37 GiB
Duration : 3h 0mn
Overall bit rate : 1 084 Kbps
Writing application : VirtualDubMod 1.5.10.2 (build 2542/release)
Writing library : VirtualDubMod build 2542/release
Video
ID : 0
Format : MPEG-4 Visual
Format profile : AdvancedSimple@L5
Format settings, BVOP : Yes
Format settings, QPel : No
Format settings, GMC : No warppoints
Format settings, Matrix : Default (H.263)
Muxing mode : Packed bitstream
Codec ID : XVID
Codec ID/Hint : XviD
Duration : 3h 0mn
Bit rate : 884 Kbps
Width : 720 pixels
Height : 302 pixels
Display aspect ratio : 2.35:1
Frame rate : 23.976 fps
Resolution : 24 bits
Colorimetry : 4:2:0
Scan type : Progressive
Bits/(Pixel*Frame) : 0.170
Stream size : 1.12 GiB (82%)
Writing library : XviD 62
Audio
ID : 1
Format : AC-3
Format/Info : Audio Coding 3
Codec ID : 2000
Duration : 3h 0mn
Bit rate mode : Constant
Bit rate : 192 Kbps
Channel(s) : 2 channels
Channel positions : L R
Sampling rate : 48.0 KHz
Stream size : 248 MiB (18%)
Alignment : Split accross interleaves
Interleave, duration : 64 ms (1.53 video frames)
Interleave, preload duration : 500 ms







Spoiler
http://www.megaupload.com/?d=LG36K074
http://www.megaupload.com/?d=LD3PMYQ0
http://www.megaupload.com/?d=H3WSXBKL
http://www.megaupload.com/?d=JYX0DTS3
PASS:the happyboy44

Dar Puntos:1 2 3 4 5 6 7 8 9 10 (de 10 Disponibles)
Cualquier consulta mandar un MP y con mucho gusto sera atendida
VISITEN MIS OTROS APORTES





Valoración: 0 / 5.00 (0 votos)

Todavía no hay comentarios, se el primero!

Escribir un comentario