Descargar El Retorno De Los Magos. Alex Vs. Alex [DVD-Rip/Cast][Fantástico][2013][UL] Gratis

escrito por Javi Sanchez el 15 junio 2013

Sin comentarios




Título Original: The Wizards Return: Alex vs. Alex
Director: Victor Gonzalez
Duración: 00:58:00
Estreno o Año: 2013
Género: Fantático | Comedia
País: Estados Unidos
Distribuidora/Productora: It’s a Laugh Productions / Disney Channel
Calificación: Apta para todos los públicos
Reparto: Selena Gomez, Jake T. Austin, Jennifer Stone, Maria Canals-Barrera, David DeLuise, Gregg Sulkin, Vince Falzone, Nikki Hahn

La familia Russo y sus amigos se dirigen a la Toscana, Italia, para cumplir con su
tiempo perdido familiares. Pero cuando Alex intenta demostrar que es más que una apariencia, las cosas se complican.




Calidad: DVD-Rip
Idioma: Castellano Ac3
Tamaño: AVI 852 mb
Servidor: Uploaded.to


Spoiler

General
Complete name : E.l.R.e.t.o.r.n.o.D.e.L.o.s.M.a.g.o.s.Alex.Vs.Alex .DVD-Rip[jc].avi
Format : AVI
Format/Info : Audio Video Interleave
File size : 852 MiB
Duration : 58mn 39s
Overall bit rate : 2 029 Kbps
Writing application : VirtualDubMod 1.5.10.2 (build 2540/release)
Writing library : VirtualDubMod build 2540/release
Video
ID : 0
Format : xvid
Codec ID : xvid
Duration : 58mn 39s
Bit rate : 1 501 Kbps
Width : 720 pixels
Height : 400 pixels
Display aspect ratio : 16:9
Frame rate : 23.976 fps
Bits/(Pixel*Frame) : 0.217
Stream size : 630 MiB (74%)
Audio #1
ID : 1
Format : AC-3
Format/Info : Audio Coding 3
Mode extension : CM (complete main)
Format settings, Endianness : Big
Codec ID : 2000
Duration : 58mn 39s
Bit rate mode : Constant
Bit rate : 384 Kbps
Channel(s) : 2 channels
Channel positions : Front: L R
Sampling rate : 48.0 KHz
Bit depth : 16 bits
Compression mode : Lossy
Stream size : 161 MiB (19%)
Alignment : Split accross interleaves
Interleave, duration : 42 ms (1.00 video frame)
Interleave, preload duration : 500 ms
Audio #2
ID : 2
Format : MPEG Audio
Format version : Version 1
Format profile : Layer 3
Mode : Joint stereo
Mode extension : MS Stereo
Codec ID : 55
Codec ID/Hint : MP3
Duration : 58mn 39s
Bit rate mode : Constant
Bit rate : 128 Kbps
Channel(s) : 2 channels
Sampling rate : 44.1 KHz
Compression mode : Lossy
Stream size : 53.7 MiB (6%)
Alignment : Aligned on interleaves
Interleave, duration : 26 ms (0.63 video frame)
Interleave, preload duration : 522 ms
Writing library : LAME3.98.4


http://www.youtube.com/v/bWtAn12Z_3g…&version=3


Cita:



Download El Retorno De Los Magos. Alex Vs. Alex (DVD-Rip)

Todavía no hay comentarios, se el primero!

Escribir un comentario