Chronicle 2012 DC BRRiP x264 AC3

escrito por Javi Sanchez el 12 julio 2013

Sin comentarios

Chronicle 2012 DC BRRiP x264 AC3-BadMeetsEvil

Código:

iMDB http://www.imdb.com/title/tt1706593

Source 720p REFiNED – MANY THANKX

Media Info
Chronicle 2012 DC BRRiP x264 AC3-BadMeetsEvil.mp4
Format : MPEG-4
Format profile : Base Media
Codec ID : isom
File size : 1.37 GiB
Duration : 1h 29mn
Overall bit rate mode : Variable
Overall bit rate : 2 185 Kbps
Encoded date : UTC 2013-07-11 10:53:49
Tagged date : UTC 2013-07-11 10:53:49

Video
ID : 1
Format : AVC
Format/Info : Advanced Video Codec
Format profile : High@L4.1
Format settings, CABAC : Yes
Format settings, ReFrames : 3 frames
Codec ID : avc1
Codec ID/Info : Advanced Video Coding
Duration : 1h 29mn
Bit rate mode : Variable
Bit rate : 1 800 Kbps
Maximum bit rate : 40.0 Mbps
Width : 720 pixels
Height : 384 pixels
Display aspect ratio : 1.85:1
Frame rate mode : Constant
Frame rate : 23.976 fps
Color space : YUV
Chroma subsampling : 4:2:0
Bit depth : 8 bits
Scan type : Progressive
Bits/(Pixel*Frame) : 0.272
Stream size : 1.12 GiB (82%)
Title : Chronicle 2012 DC BRRiP x264 AC3-BadMeetsEvil
Writing library : x264 core 133 r2334 a3ac64b

Audio
ID : 2
Format : AC-3
Format/Info : Audio Coding 3
Mode extension : CM (complete main)
Format settings, Endianness : Big
Codec ID : ac-3
Duration : 1h 29mn
Bit rate mode : Constant
Bit rate : 384 Kbps
Channel(s) : 6 channels
Channel positions : Front: L C R, Side: L R, LFE
Sampling rate : 48.0 KHz
Bit depth : 16 bits
Compression mode : Lossy
Stream size : 246 MiB (18%)

Código:

http://ul.to/bntywkci

http://ul.to/xzdiwbb5

http://rapidgator.net/file/5549dd7939e82ee0da2050f2de24b1e2/chro.part1.rar.html

http://rapidgator.net/file/96a633888ca455078529b6b41cc019b1/chro.part2.rar.html

Valoración: 0 / 5.00 (0 votos)

Todavía no hay comentarios, se el primero!

Escribir un comentario