Before Midnight 2013 HDRiP XViD UNiQUE

escrito por Javi Sanchez el 13 julio 2013

Sin comentarios

Before Midnight 2013 HDRiP XViD UNiQUE

Código:

Format : AVI
Format/Info : Audio Video Interleave
File size : 1.42 GiB
Duration : 1h 48mn
Overall bit rate : 1 867 Kbps
Writing application : VirtualDubMod 1.5.10.2 (build 2540/release)
Writing library : VirtualDubMod build 2540/release

Video
ID : 0
Format : MPEG-4 Visual
Format profile : Advanced Simple@L5
Format settings, BVOP : 2
Format settings, QPel : No
Format settings, GMC : No warppoints
Format settings, Matrix : Default (H.263)
Muxing mode : Packed bitstream
Codec ID : XVID
Codec ID/Hint : XviD
Duration : 1h 48mn
Bit rate : 1 663 Kbps
Width : 720 pixels
Height : 304 pixels
Display aspect ratio : 2.35:1
Frame rate : 29.970 fps
Color space : YUV
Chroma subsampling : 4:2:0
Bit depth : 8 bits
Scan type : Progressive
Compression mode : Lossy
Bits/(Pixel*Frame) : 0.254
Stream size : 1.26 GiB (89%)
Writing library : XviD 64

Audio
ID : 1
Format : AC-3
Format/Info : Audio Coding 3
Mode extension : CM (complete main)
Format settings, Endianness : Big
Codec ID : 2000
Duration : 1h 48mn
Bit rate mode : Constant
Bit rate : 192 Kbps
Channel(s) : 2 channels
Channel positions : Front: L R
Sampling rate : 44.1 KHz
Bit depth : 16 bits
Compression mode : Lossy
Delay relative to video : 13ms
Stream size : 149 MiB (10%)
Alignment : Split accross interleaves
Interleave, duration : 33 ms (1.00 video frame)
Interleave, preload duration : 500 ms

Click To Resize



Código:

Source Used Before Midnight 2013 KORSUB 720p HDRip x264 AAC-JYK – Thanks

http://www.imdb.com/title/tt2209418

We meet Jesse and Celine nine years on in Greece. Almost two decades have passed since their first meeting on that train bound for Vienna.

Sample:
Código:

http://uploaded.net/file/j7fohw0y/sample.avi

Download:
Código:

http://uploaded.net/file/8qv55f07/Before.avi
or

http://uploaded.net/file/i0l1mb8l/Before%20Midnight%202013%20HDRiP%20XViD%20UNiQUE.part1.rar

http://uploaded.net/file/ydvg18xq/Before%20Midnight%202013%20HDRiP%20XViD%20UNiQUE.part2.rar

Valoración: 0 / 5.00 (0 votos)

Todavía no hay comentarios, se el primero!

Escribir un comentario