Batman (1989) BRRip 720p C/ sub es español

escrito por Javi Sanchez el 11 julio 2013

Sin comentarios


CAPTURAS PROPIAS:







sinopsis:
Cinta basada en el cómic homónimo. La oscura y peligrosa ciudad de Gotham tan sólo se halla protegida por su corrupto cuerpo de policía. A pesar de los esfuerzos del fiscal del distrito Harvey Dent y el comisionado de policía Jim Gordon, la ciudad es cada vez más insegura hasta que aparece Batman, el Señor de la Noche. La reputada periodista Vicky Vale intentará descubrir el secreto que se oculta tras el hombre murciélago.
MEDIA INFO
Spoiler

Format : MPEG-4
Format profile : Base Media
Codec ID : isom
File size : 700 MiB
Duration : 2h 6mn
Overall bit rate mode : Variable
Overall bit rate : 775 Kbps
Encoded date : UTC 2011-12-02 04:36:33
Tagged date : UTC 2011-12-02 04:36:33
Video
ID : 1
Format : AVC
Format/Info : Advanced Video Codec
Format profile : High@L3.1
Format settings, CABAC : Yes
Format settings, ReFrames : 4 frames
Codec ID : avc1
Codec ID/Info : Advanced Video Coding
Duration : 2h 6mn
Bit rate : 658 Kbps
Maximum bit rate : 5 159 Kbps
Width : 1 280 pixels
Height : 720 pixels
Display aspect ratio : 16:9
Frame rate mode : Constant
Frame rate : 23.976 fps
Color space : YUV
Chroma subsampling : 4:2:0
Bit depth : 8 bits
Scan type : Progressive
Bits/(Pixel*Frame) : 0.030
Stream size : 594 MiB (85%)
Writing library : x264 core 118 r2085 8a62835
Encoding settings : cabac=1 / ref=3 / deblock=1:0:0 / analyse=0x3:0x113 / me=hex / subme=7 / psy=1 / psy_rd=1.00:0.00 / mixed_ref=1 / me_range=16 / chroma_me=1 / trellis=1 / 8x8dct=1 / cqm=0 / deadzone=21,11 / fast_pskip=1 / chroma_qp_offset=-2 / threads=3 / sliced_threads=0 / nr=0 / decimate=1 / interlaced=0 / bluray_compat=0 / constrained_intra=0 / bframes=3 / b_pyramid=2 / b_adapt=1 / b_bias=0 / direct=1 / weightb=1 / open_gop=0 / weightp=2 / keyint=250 / keyint_min=23 / scenecut=40 / intra_refresh=0 / rc_lookahead=40 / rc=2pass / mbtree=1 / bitrate=658 / ratetol=1.0 / qcomp=0.60 / qpmin=0 / qpmax=69 / qpstep=4 / cplxblur=20.0 / qblur=0.5 / ip_ratio=1.40 / aq=1:1.00
Encoded date : UTC 2011-12-02 04:36:33
Tagged date : UTC 2011-12-02 04:37:47
Audio
ID : 2
Format : MPEG Audio
Format version : Version 1
Format profile : Layer 3
Codec ID : 6B
Duration : 2h 6mn
Bit rate mode : Variable
Bit rate : 114 Kbps
Nominal bit rate : 128 Kbps
Maximum bit rate : 147 Kbps
Channel(s) : 2 channels
Sampling rate : 32.0 KHz
Compression mode : Lossy
Delay relative to video : 83ms
Stream size : 103 MiB (15%)
Writing library : LAME3.98r
Encoding settings : -m s -V 4 -q 2 -lowpass 16 –abr 128
Encoded date : UTC 2011-12-02 04:37:39
Tagged date : UTC 2011-12-02 04:37:47

LINKS DE DESCARGA Intercambiables
RAPIGATOR:
http://adf.ly/RukyJ
BITSHARE:
http://adf.ly/Rukzl
PASS PARA LOS ARCHIVOS:seven


Valoración: 0 / 5.00 (0 votos)

Todavía no hay comentarios, se el primero!

Escribir un comentario