Animal (2014) [720pHD.MP4/Subtitulada] [Terror]

escrito por Javi Sanchez el 3 julio 2014

Sin comentarios

Sinopsis:
Estando de descanso durante un fin de semana, un grupo de amigos se encuentra en un paraje inhóspito a merced de una sanguinario y terrible depredador.

Ficha Técnica:
Título original: Animal
Año: 2014
Duración: 86 min.
País: Estados Unidos
Director: Brett Simmons
Guión: Thommy Hutson, Catherine Trillo
Música: tomandandy
Fotografía: Scott Winig
Reparto: Keke Palmer, Amaury Nolasco, Parker Young, Joey Lauren Adams, Elizabeth Gillies, Paul Iacono, Thorsten Kaye, Jeremy Sumpter
Productora: Chiller Films / Flower Films / Synthetic Cinema International
Género: Terror. Thriller | Supervivencia. Monstruos

Trailer:

Datos Técnicos:
720pHD | MP4 | 1280×544 | 980 MB | Sub Español

Código:
General
Complete name                            : Animal.720p.VOSE.mp4
Format                                   : MPEG-4
Format profile                           : Base Media / Version 2
Codec ID                                 : mp42
File size                                : 980 MiB
Duration                                 : 1h 21mn
Overall bit rate mode                    : Variable
Overall bit rate                         : 1 675 Kbps
Encoded date                             : UTC 2014-06-22 18:42:16
Tagged date                              : UTC 2014-06-22 19:03:18
Writing application                      : DVDFab

Video
ID                                       : 1
Format                                   : AVC
Format/Info                              : Advanced Video Codec
Format profile                           : Main@L3.1
Format settings, CABAC                   : Yes
Format settings, ReFrames                : 1 frame
Codec ID                                 : avc1
Codec ID/Info                            : Advanced Video Coding
Duration                                 : 1h 21mn
Bit rate mode                            : Variable
Bit rate                                 : 1 543 Kbps
Width                                    : 1 280 pixels
Height                                   : 544 pixels
Display aspect ratio                     : 2.35:1
Frame rate mode                          : Variable
Frame rate                               : 23.976 fps
Minimum frame rate                       : 23.974 fps
Maximum frame rate                       : 23.981 fps
Color space                              : YUV
Chroma subsampling                       : 4:2:0
Bit depth                                : 8 bits
Scan type                                : Progressive
Bits/(Pixel*Frame)                       : 0.092
Stream size                              : 903 MiB (92%)
Writing library                          : x264 core
Encoded date                             : UTC 2014-06-22 18:42:16
Tagged date                              : UTC 2014-06-22 19:03:13
Color primaries                          : BT.709
Transfer characteristics                 : BT.709
Matrix coefficients                      : BT.709

Audio
ID                                       : 2
Format                                   : AAC
Format/Info                              : Advanced Audio Codec
Format profile                           : LC
Codec ID                                 : 40
Duration                                 : 1h 21mn
Bit rate mode                            : Variable
Bit rate                                 : 128 Kbps
Maximum bit rate                         : 212 Kbps
Channel(s)                               : 2 channels
Channel positions                        : Front: L R
Sampling rate                            : 48.0 KHz
Compression mode                         : Lossy
Stream size                              : 74.9 MiB (8%)
Language                                 : English
Encoded date                             : UTC 2014-06-22 18:42:16
Tagged date                              : UTC 2014-06-22 19:01:52

Capturas:

Descargar Gratis:

FreakShare | FireDriver

Todavía no hay comentarios, se el primero!

Escribir un comentario