After Effect (aka The Removed) 2013 HDRip AAC x264-SSDD

escrito por Javi Sanchez el 12 julio 2013

Sin comentarios

After Effect (aka The Removed) 2013 HDRip AAC x264-SSDD

Código:

IMDB Link – http://www.imdb.com/title/tt1622566

Source – After Effect 2013 KOR HDRiP XViD UNiQUE

NOTES – Enjoy. This is After Effect a.k.a The Removed.

General
Complete name : After Effect (aka The Removed) 2013 HDRip AAC x264-SSDD.mp4
Format : MPEG-4
Format profile : Base Media
Codec ID : isom
File size : 375 MiB
Duration : 1h 26mn
Overall bit rate mode : Variable
Overall bit rate : 609 Kbps

Video
ID : 1
Format : AVC
Format/Info : Advanced Video Codec
Format profile : High@L4.1
Format settings, CABAC : Yes
Format settings, ReFrames : 4 frames
Codec ID : avc1
Codec ID/Info : Advanced Video Coding
Duration : 1h 26mn
Bit rate : 557 Kbps
Maximum bit rate : 2 344 Kbps
Width : 640 pixels
Height : 304 pixels
Display aspect ratio : 2.105
Frame rate mode : Constant
Frame rate : 29.970 fps
Color space : YUV
Chroma subsampling : 4:2:0
Bit depth : 8 bits
Scan type : Progressive
Bits/(Pixel*Frame) : 0.096
Stream size : 343 MiB (91%)
Writing library : x264 core 133 r2334 a3ac64b

Audio
ID : 2
Format : AAC
Format/Info : Advanced Audio Codec
Format profile : LC
Codec ID : 40
Duration : 1h 26mn
Bit rate mode : Variable
Bit rate : 48.0 Kbps
Maximum bit rate : 52.8 Kbps
Channel(s) : 2 channels
Channel positions : Front: L R
Sampling rate : 48.0 KHz
Compression mode : Lossy
Stream size : 29.6 MiB (8%)



Código:

http://ul.to/3m3iljc9
http://rapidgator.net/file/154a1ec45022d247c9e50e94981ac378/after.rar.html

Valoración: 0 / 5.00 (0 votos)

Todavía no hay comentarios, se el primero!

Escribir un comentario